<?xml version="1.0" standalone="no"?>
<!DOCTYPE svg PUBLIC "-//W3C//DTD SVG 1.1//EN" "http://www.w3.org/Graphics/SVG/1.1/DTD/svg11.dtd" >
<svg>
<metadata>
Created by FontForge 20100429 at Wed Feb 15 22:54:04 2012
 By Aharonium,,,
Linux Libertine by Philipp H. Poll, Open Font under Terms of following Free Software Licenses:
GPL (General Public License) with font-exception and OFL (Open Font License).
Created with FontForge (http://fontforge.sf.net) Sept 2003, 2004, 2005, 2006, 2007, 2008
</metadata>
<defs>
<font id="LinLibertineO-Hebrew" horiz-adv-x="0" >
  <font-face 
    font-family="Linux Libertine O"
    font-weight="400"
    font-stretch="normal"
    units-per-em="2048"
    panose-1="2 0 5 3 0 0 0 0 0 0"
    ascent="1638"
    descent="-410"
    bbox="-102 -451 1188 1528"
    underline-thickness="81"
    underline-position="-201"
    unicode-range="U+05B0-FB35"
  />
    <missing-glyph />
    <glyph glyph-name="afii57799" unicode="&#x5b0;" 
d="M233 -373q0 29 21.5 49.5t50.5 20.5t50.5 -20.5t21.5 -49.5t-21.5 -50t-50.5 -21t-50.5 21t-21.5 50zM233 -154q0 29 21.5 49.5t50.5 20.5t50.5 -20.5t21.5 -49.5t-21.5 -50t-50.5 -21t-50.5 21t-21.5 50z" />
    <glyph glyph-name="afii57801" unicode="&#x5b1;" 
d="M637 -373q0 29 21.5 49.5t50.5 20.5t50 -20.5t21 -49.5t-21 -50t-50 -21t-50.5 21t-21.5 50zM637 -154q0 29 21.5 49.5t50.5 20.5t50 -20.5t21 -49.5t-21 -50t-50 -21t-50.5 21t-21.5 50zM94 -154q0 29 21.5 49.5t50.5 20.5t50.5 -20.5t21.5 -49.5t-21.5 -50t-50.5 -21
t-50.5 21t-21.5 50zM324 -154q0 29 21 49.5t50 20.5t50.5 -20.5t21.5 -49.5t-21.5 -50t-50.5 -21t-50 21t-21 50zM207 -371q0 29 21.5 49.5t50.5 20.5t50 -20.5t21 -49.5t-21 -50t-50 -21t-50.5 21t-21.5 50z" />
    <glyph glyph-name="afii57800" unicode="&#x5b2;" 
d="M76 -197v84h280v-84h-280zM555 -373q0 29 21.5 49.5t50.5 20.5t50 -20.5t21 -49.5t-21 -50t-50 -21t-50.5 21t-21.5 50zM555 -154q0 29 21.5 49.5t50.5 20.5t50 -20.5t21 -49.5t-21 -50t-50 -21t-50.5 21t-21.5 50z" />
    <glyph glyph-name="afii57802" unicode="&#x5b3;" 
d="M561 -373q0 29 21.5 49.5t50.5 20.5t50.5 -20.5t21.5 -49.5t-21.5 -50t-50.5 -21t-50.5 21t-21.5 50zM561 -154q0 29 21.5 49.5t50.5 20.5t50.5 -20.5t21.5 -49.5t-21.5 -50t-50.5 -21t-50.5 21t-21.5 50zM49 -199v86h336v-86h-131v-94q35 -21 35 -59q0 -29 -21.5 -50.5
t-50.5 -21.5t-50.5 21.5t-21.5 50.5q0 42 37 61v92h-133z" />
    <glyph glyph-name="afii57793" unicode="&#x5b4;" 
d="M268 -229q0 29 21 49t51 20t51 -20t21 -49t-21.5 -50.5t-50.5 -21.5t-50.5 21.5t-21.5 50.5z" />
    <glyph glyph-name="afii57794" unicode="&#x5b5;" 
d="M385 -229q0 29 21 49t51 20q29 0 50 -20t21 -49t-21 -50.5t-50 -21.5t-50.5 21.5t-21.5 50.5zM154 -229q0 29 21 49t50 20q30 0 51 -20t21 -49t-21.5 -50.5t-50.5 -21.5t-50 21.5t-21 50.5z" />
    <glyph glyph-name="afii57795" unicode="&#x5b6;" 
d="M268 -371q0 29 21.5 49.5t50.5 20.5t50.5 -20.5t21.5 -49.5t-21.5 -50t-50.5 -21t-50.5 21t-21.5 50zM385 -154q0 29 21.5 49.5t50.5 20.5t50 -20.5t21 -49.5t-21 -50t-50 -21t-50.5 21t-21.5 50zM156 -154q0 29 21 49.5t50 20.5t50.5 -20.5t21.5 -49.5t-21.5 -50
t-50.5 -21t-50 21t-21 50z" />
    <glyph glyph-name="afii57798" unicode="&#x5b7;" 
d="M174 -264v86h336v-86h-336z" />
    <glyph glyph-name="afii57797" unicode="&#x5b8;" 
d="M174 -217v86h336v-86h-131v-94q35 -21 35 -60q0 -29 -21.5 -50t-50.5 -21t-50.5 21t-21.5 50q0 43 37 62v92h-133z" />
    <glyph glyph-name="afii57806" unicode="&#x5b9;" 
d="M82 1290q0 29 21.5 49.5t50.5 20.5t50 -20.5t21 -49.5t-21 -50t-50 -21t-50.5 21t-21.5 50z" />
    <glyph glyph-name="uni05BA" unicode="&#x5ba;" 
d="M82 1290q0 29 21.5 49.5t50.5 20.5t50 -20.5t21 -49.5t-21 -50t-50 -21t-50.5 21t-21.5 50z" />
    <glyph glyph-name="afii57796" unicode="&#x5bb;" 
d="M530 -373q0 29 21.5 49.5t50.5 20.5t50.5 -20.5t21.5 -49.5t-21.5 -50t-50.5 -21t-50.5 21t-21.5 50zM301 -264q0 29 21 49t51 20q29 0 50 -20t21 -49t-21 -50.5t-50 -21.5t-50.5 21.5t-21.5 50.5zM72 -154q0 29 21 49.5t50 20.5t50.5 -20.5t21.5 -49.5t-21.5 -50
t-50.5 -21t-50 21t-21 50z" />
    <glyph glyph-name="uni05BC" unicode="&#x5bc;" 
d="M268 518q0 29 21.5 49.5t50.5 20.5t50.5 -20.5t21.5 -49.5t-21.5 -50.5t-50.5 -21.5t-50.5 21.5t-21.5 50.5z" />
    <glyph glyph-name="afii57839" unicode="&#x5bd;" 
d="M297 -133h76v-283h-76v283z" />
    <glyph glyph-name="afii57645" unicode="&#x5be;" horiz-adv-x="768" 
d="M127 856l43 178h471l-41 -178h-473z" />
    <glyph glyph-name="afii57841" unicode="&#x5bf;" 
d="M172 1231v86h336v-86h-336z" />
    <glyph glyph-name="afii57842" unicode="&#x5c0;" horiz-adv-x="595" 
d="M233 -14v1185h117v-1185h-117z" />
    <glyph glyph-name="afii57804" unicode="&#x5c1;" 
d="M649 1286q0 29 21.5 49.5t50.5 20.5t50.5 -20.5t21.5 -49.5t-21.5 -50.5t-50.5 -21.5t-50.5 21.5t-21.5 50.5z" />
    <glyph glyph-name="afii57803" unicode="&#x5c2;" 
d="M-102 1286q0 29 21 49.5t50 20.5t50.5 -20.5t21.5 -49.5t-21.5 -50.5t-50.5 -21.5t-50 21.5t-21 50.5z" />
    <glyph glyph-name="afii57658" unicode="&#x5c3;" horiz-adv-x="720" 
d="M541 870q-84 -34 -119 -72.5t-62 -109.5q-36 95 -60 120.5t-98 53.5l-22 8q77 30 112 62.5t68 118.5q19 -48 33 -75.5t36.5 -47t36.5 -26.5t56 -24zM541 172q-9 -4 -30 -12.5l-27 -11t-21.5 -10t-20.5 -12.5t-16.5 -15t-17 -19.5t-15 -24.5t-17 -32.5l-16.5 -40.5
q-18 47 -35 76.5t-42.5 49t-43.5 28t-59 24.5q37 15 67.5 35.5t47 37t32 42t20 35.5t13.5 32q28 -73 63.5 -111t117.5 -71z" />
    <glyph glyph-name="uni05C6" unicode="&#x5c6;" horiz-adv-x="667" 
d="M135 557q0 60 -18.5 181.5t-18.5 179.5q0 36 11.5 62t28.5 40.5t44 23.5t50.5 12.5t56.5 4.5q29 1 46.5 3t41 9t37.5 22.5t18 39.5q4 0 10 -1t21.5 -9t27.5 -22t21.5 -44.5t9.5 -71.5q0 -62 -63.5 -102.5t-171.5 -46.5q-43 -3 -70 -24t-27 -58q0 -59 8.5 -196.5
t8.5 -188.5q0 -58 -19 -166h349l65 -205h-518q-10 36 -10 129q0 43 30.5 184.5t30.5 243.5z" />
    <glyph glyph-name="afii57664" unicode="&#x5d0;" horiz-adv-x="985" 
d="M928 905q0 -29 -8 -70t-17.5 -69.5t-13.5 -28.5q-9 0 -20.5 19.5t-28 40t-37.5 22.5q-111 -145 -111 -258q0 -51 27 -98l133 -146q78 -90 78 -184q0 -55 -25.5 -103t-70.5 -48q-6 75 -54 129l-528 583q-42 -29 -62 -86t-20 -108q0 -34 21 -73.5t51 -76l59.5 -73
t50.5 -76.5t21 -74q0 -49 -32 -88t-69 -39h-206q-5 10 -5 12q0 15 15 19q25 3 46 22t21 43q0 27 -37.5 130.5t-37.5 150.5q0 92 38.5 190t120.5 152l-61 69q-78 90 -78 185q0 86 70 162h26q3 -87 52 -142l380 -422l2 -2q32 151 119 262q-147 37 -147 156q0 39 7 70t17 47
t19.5 26t16.5 12l7 3q11 -8 14 -18.5t4.5 -19.5t9.5 -20t36 -24.5t76 -28.5q26 -7 44 -14t40.5 -21.5t34.5 -38t12 -55.5z" />
    <glyph glyph-name="afii57665" unicode="&#x5d1;" horiz-adv-x="958" 
d="M487 1092q209 0 283 -92q55 -68 63 -229q3 -49 3 -153q0 -286 -88 -413h167l-47 -205h-827l49 205h627q41 196 41 319q0 98 -7 159t-19 100t-40 57.5t-59 24t-86 5.5h-316q-73 0 -116 41.5t-43 106.5q0 41 10.5 73.5t25 49t29 27t25.5 13.5l10 3q8 -39 32.5 -65.5
t63.5 -26.5h219z" />
    <glyph glyph-name="afii57666" unicode="&#x5d2;" horiz-adv-x="686" 
d="M479 606q0 -70 29 -149.5t66.5 -167.5t50.5 -156q8 -40 8 -72q0 -48 -17 -73q-32 0 -54.5 39.5t-33 90t-27.5 112.5t-36 94h-14l-152 -316l-250 -8q0 4 -3 25t-3 38q0 21 2 33q18 97 72 109q115 21 179.5 59.5t99 120.5t34.5 221q0 58 -8.5 99t-21 65t-36.5 39t-46 20.5
t-58 10.5q-160 25 -160 135q0 39 9.5 70t22.5 47t26 26.5t22 13.5l10 3q5 -25 18.5 -40.5t36 -21t37.5 -7t42 -1.5q36 0 63.5 -5.5t54 -20.5t40.5 -45.5t14 -75.5q0 -38 -8.5 -155.5t-8.5 -156.5z" />
    <glyph glyph-name="afii57667" unicode="&#x5d3;" horiz-adv-x="897" 
d="M678 596q0 -70 11 -210t11 -212q0 -176 -139 -176h-22q24 38 24 102q0 68 -4 173.5t-4 150.5q0 285 174 422h-508q-153 0 -153 125q0 43 9 75.5t21.5 48.5t25 26t21.5 12l9 2q18 -70 100 -70h455q143 0 143 -127q0 -46 -18 -78.5t-43.5 -52.5t-51 -43t-43.5 -65t-18 -103
z" />
    <glyph glyph-name="afii57668" unicode="&#x5d4;" horiz-adv-x="978" 
d="M244 326q0 -20 4 -104t4 -103q0 -62 -38.5 -102t-111.5 -44l-14 23q27 30 27 88q0 18 -3 98.5t-3 100.5q0 107 37.5 166t111.5 59q22 0 35 -8v-27q-49 -30 -49 -147zM819 606q0 -68 22.5 -216t22.5 -216q0 -178 -141 -199l-16 21q24 44 24 104q0 43 -7 178.5t-7 178.5
q0 241 117 379h-605q-75 0 -118 40.5t-43 104.5q0 43 9.5 75.5t23 49t27 26.5t22.5 12l10 3q8 -37 35.5 -63.5t64.5 -26.5h504q77 0 103 -28t26 -91v-49q0 -26 -11.5 -50.5t-25.5 -44.5t-25.5 -69t-11.5 -119z" />
    <glyph glyph-name="uni05D5" unicode="&#x5d5;" horiz-adv-x="583" 
d="M367 -12l20 700q0 83 -36 114t-124 44q-76 12 -124 58t-48 108q0 32 11 57.5t26.5 39t30.5 22.5t26 11l11 3q4 -21 17 -36.5t35.5 -24.5t36.5 -13t38 -8q42 -7 62.5 -12t47 -19.5t38 -37.5t20 -63.5t8.5 -99.5l12 -727q0 -29 -11 -51.5t-27 -34.5t-32 -19t-27 -9z" />
    <glyph glyph-name="afii57670" unicode="&#x5d6;" horiz-adv-x="591" 
d="M240 104q0 60 -16.5 184t-16.5 183q0 202 80 373q-209 0 -209 143q0 43 8.5 75.5t20.5 48.5t24 26t21 12l8 2q12 -58 65 -70q127 -4 188.5 -18.5t86 -46t24.5 -96.5q0 -15 -8.5 -42.5t-19.5 -43.5q-18 -7 -37 -7q-51 0 -123 35q-31 -97 -31 -209q0 -82 32 -235t32 -225
q0 -54 -16.5 -94t-40 -59t-47 -30t-39.5 -12l-17 -2q31 45 31 108z" />
    <glyph glyph-name="afii57671" unicode="&#x5d7;" horiz-adv-x="980" 
d="M811 612q0 -59 23.5 -217t23.5 -221q0 -49 -16 -85t-39 -53t-46 -27t-39 -11l-16 -2q27 40 27 104q0 43 -8 178.5t-8 178.5q0 243 121 389h-510q-101 -75 -101 -244q0 -64 19.5 -206t19.5 -206q0 -53 -16.5 -92.5t-40.5 -58t-48 -29.5t-41 -12l-16 -2q31 46 31 143
q0 23 -5 128.5t-5 172.5q0 137 29.5 231t113.5 175q-93 0 -142.5 46t-49.5 120q0 37 10.5 64.5t26 40.5t31 20.5t26.5 8.5l10 1q8 -37 33 -59.5t65 -22.5h492q137 0 137 -135q0 -43 -9.5 -73t-23 -50l-27 -41.5t-23 -60t-9.5 -93.5z" />
    <glyph glyph-name="afii57672" unicode="&#x5d8;" horiz-adv-x="995" 
d="M197 840q-70 12 -105 43.5t-35 101.5q0 44 8 77t19.5 48t23 24t19.5 10l8 1q9 -75 109 -78q118 -3 118 -129q0 -42 -12 -86q-33 -10 -69 -10q-6 0 -18.5 1t-18.5 1q-45 -149 -45 -213q0 -169 112 -426h457q94 196 94 430q0 108 -45 165.5t-129 57.5q-73 0 -128.5 -43.5
t-127.5 -167.5l-49 25l62.5 141.5t49.5 97.5t54 80q74 88 158 88q29 0 55.5 -9.5t57.5 -38.5t53.5 -75.5t37.5 -129.5t15 -191q0 -250 -138 -635h-571q-1 67 -42.5 268.5t-41.5 294.5q0 112 64 277z" />
    <glyph glyph-name="afii57673" unicode="&#x5d9;" horiz-adv-x="552" 
d="M311 498l-12 14q92 68 92 227q0 50 -43 79t-119 32q-83 3 -128.5 41.5t-45.5 105.5q0 38 9 67.5t21.5 44t25 23.5t21.5 11l9 2q4 -28 17 -45t37.5 -23.5t42 -8t49.5 -1.5q74 0 111 -18t53 -65t16 -142q0 -39 -6 -81t-21 -94.5t-48.5 -98t-80.5 -70.5z" />
    <glyph glyph-name="afii57674" unicode="&#x5da;" horiz-adv-x="972" 
d="M803 739l33 -915q0 -45 -11 -78.5t-25.5 -50t-34 -27t-31.5 -12.5t-23 -2l18 1182h-518q-70 0 -107.5 38t-37.5 103q0 41 9 71t22 44.5t26 22.5t22 9l9 2q18 -69 106 -69h496q139 0 139 -119q0 -39 -17 -67.5t-42 -36.5q-33 -11 -33 -95z" />
    <glyph glyph-name="afii57675" unicode="&#x5db;" horiz-adv-x="948" 
d="M760 508q0 65 -3.5 110t-15 91.5t-32.5 74t-57.5 45t-88.5 17.5h-340q-141 0 -141 127q0 41 9 72.5t22 48t26 27t22 13.5l9 3q15 -70 98 -70h271q156 0 227.5 -130t71.5 -394q0 -99 -5.5 -169.5t-21 -135.5t-43 -106.5t-71 -72.5t-106 -45t-147.5 -14h-387l54 205h430
q117 0 168 74.5t51 228.5z" />
    <glyph glyph-name="afii57676" unicode="&#x5dc;" horiz-adv-x="974" 
d="M168 1143q0 -47 33.5 -62.5t99.5 -15.5h348q45 0 77.5 -8t54.5 -27.5t35 -43.5t20 -64t9.5 -80.5t2.5 -102.5q0 -93 -12 -142.5t-41 -92t-109 -131.5q-60 -69 -83.5 -98t-48 -73t-24.5 -77q0 -17 4.5 -40t4.5 -34q0 -74 -68 -74t-68 84q0 123 228 351q81 82 105 128.5
t24 139.5q0 42 -6.5 69t-25.5 51t-58.5 35t-100.5 11h-313q-79 0 -124.5 34t-45.5 101q0 113 49 242q23 46 23 73q0 38 -66 62q-69 22 -69 72q0 26 6.5 45t15.5 28.5t17.5 15t15.5 7.5l6 2q4 -41 61 -55q80 -22 80 -84q0 -5 -17.5 -74t-21.5 -82q-18 -52 -18 -90z" />
    <glyph glyph-name="afii57677" unicode="&#x5dd;" horiz-adv-x="1079" 
d="M377 854q-163 -192 -166 -350l-10 -299h690l-8 268q-5 156 -24.5 235.5t-61 112.5t-121.5 33h-299zM104 0l17 539q1 59 58.5 149t129.5 166h-63q-71 0 -110.5 42t-39.5 108q0 39 9.5 68.5t22.5 42.5t26 20.5t22 8.5l10 1q18 -72 97 -72h319q77 0 130.5 -7t95 -25
t66.5 -44.5t41.5 -70.5t23.5 -97t10 -131l22 -698h-887z" />
    <glyph glyph-name="afii57678" unicode="&#x5de;" horiz-adv-x="1064" 
d="M596 1092q89 -15 161 -69.5t117 -134t69 -175t24 -197.5q0 -62 -13.5 -141.5t-25.5 -125.5t-23 -79l-59 -170h-500l74 205h424q53 166 53 289q0 143 -82 241.5t-209 98.5q-79 0 -167.5 -58.5t-153.5 -157.5q-138 -204 -138 -600q0 -8 -11.5 -18t-24.5 -10q-35 0 -35 96
q0 209 62 388t179 306q0 39 -22 55.5t-90 30.5q-61 13 -94 54.5t-33 97.5q0 36 7 63.5t17 41.5t20.5 22t17.5 10l7 2q7 -29 27.5 -46.5t38.5 -22t45 -7.5q19 -2 31.5 -3.5t29.5 -7.5t27 -14.5t17.5 -24.5t7.5 -38q0 -19 -3 -36t-3 -29q0 -21 9 -42t23 -30q186 100 199 236z
" />
    <glyph glyph-name="afii57679" unicode="&#x5df;" horiz-adv-x="577" 
d="M301 -416l23 957q0 72 55 166q20 42 20 67q0 51 -129 57q-98 5 -150 41.5t-52 102.5q0 42 8 74t20 47.5t23.5 25t19.5 11.5l8 2q5 -25 19.5 -42t38 -24t39 -9t39.5 -3l43 -3t40 -5.5t40 -11t32.5 -18.5t27.5 -28.5t16 -42t7 -57.5q0 -36 -40 -152q-33 -95 -33 -256
l33 -643q0 -57 -7.5 -102t-20 -71t-27 -44t-31 -25t-28.5 -10t-22.5 -3.5t-11.5 -0.5z" />
    <glyph glyph-name="afii57680" unicode="&#x5e0;" horiz-adv-x="649" 
d="M500 557q0 -102 30.5 -243.5t30.5 -184.5q0 -90 -8 -129h-520l65 205h348q-11 63 -18 166q-2 14 -2 47q0 54 9 171.5t9 166.5q0 37 -26.5 58t-69.5 24q-108 6 -171.5 46.5t-63.5 102.5q0 41 9.5 71.5t22.5 44.5t26 22t23 9l9 1q4 -24 18 -39.5t37.5 -22.5t41 -9t46.5 -3
q33 -1 56.5 -4.5t50.5 -12.5t44 -23.5t28.5 -40.5t11.5 -62q0 -58 -18.5 -179.5t-18.5 -181.5z" />
    <glyph glyph-name="afii57681" unicode="&#x5e1;" horiz-adv-x="1044" 
d="M592 850h-320q-86 -145 -86 -324q0 -69 12 -124t30 -90t47.5 -60.5t55.5 -38t64 -19.5t62 -8.5t61 -1.5q58 0 100.5 6t86.5 26t72 54.5t45.5 95t17.5 144.5q0 174 -53.5 257t-194.5 83zM512 -23q-32 0 -64.5 4t-74 16.5t-78 33t-72.5 56.5t-61.5 83t-41.5 116.5
t-16 153.5q0 244 109 412q-34 0 -60 16t-39 40t-19.5 46.5t-6.5 40.5q0 39 9.5 69t23.5 44t28 22t23 10l10 1q15 -72 99 -72h274q84 0 146.5 -25.5t111.5 -83.5t74.5 -162.5t25.5 -252.5q0 -105 -12 -189.5t-32.5 -143t-51 -101.5t-63.5 -68.5t-76 -40.5t-81 -20t-85 -5z
" />
    <glyph glyph-name="afii57682" unicode="&#x5e2;" horiz-adv-x="1021" 
d="M573 250q37 5 56 13t29 21t18 42.5l17 64.5t32 99.5t57 136.5q56 118 56 155q0 57 -52 70q-147 34 -147 141q0 42 8 73.5t19 46.5t22 24t19 11l8 1q9 -40 35.5 -58t97.5 -28q106 -15 106 -109q0 -47 -27 -126.5t-59 -154t-59 -174.5t-27 -184q0 -244 -278 -274l-436 -70
l41 203l239 39q-1 93 -23.5 162t-52.5 94q-60 47 -84 86.5t-24 106.5q0 66 43 184q-62 14 -105 55.5t-43 95.5q0 40 7.5 70.5t18 45t21 23.5t18.5 11l7 2q16 -70 111 -78q25 -2 37.5 -3.5t36.5 -10t36 -22.5t22.5 -42.5t10.5 -68.5q0 -17 -6 -45.5t-12 -42.5q-45 10 -105 10
q-8 -49 -8 -101q0 -82 45 -112q36 -23 49.5 -33.5t32.5 -32.5t25 -49.5t6 -68.5v-226z" />
    <glyph glyph-name="afii57683" unicode="&#x5e3;" horiz-adv-x="974" 
d="M336 395h-115q-22 0 -56 -14t-54 -14q-60 0 -60 120q0 175 135 359q-45 9 -84 62t-39 106q0 32 12.5 59t30.5 42.5t35.5 26.5t30.5 15l12 4q8 -38 35 -66t64 -28h178q83 0 139 -5.5t99.5 -21t68.5 -38t42.5 -63t24.5 -88t11 -120.5l18 -461q13 -302 13 -557
q0 -37 -11 -64t-25.5 -41.5t-35.5 -23t-35.5 -10.5t-30.5 -2l25 930q0 87 -14.5 159.5t-34.5 110.5q-38 74 -189 74h-293q-63 -97 -63 -158q0 -48 23.5 -70t93.5 -34q96 -18 96 -92q0 -97 -47 -97z" />
    <glyph glyph-name="afii57684" unicode="&#x5e4;" horiz-adv-x="970" 
d="M799 508q0 65 -3.5 110t-15 91.5t-32.5 74t-57.5 45t-88.5 17.5h-340q-25 0 -35 2q-57 -91 -57 -160q0 -48 23.5 -70t93.5 -34q96 -18 96 -92q0 -97 -47 -97h-115q-22 0 -56 -14t-54 -14q-60 0 -60 120q0 187 135 371q-65 27 -65 115q0 41 9 72.5t22 48t26 27t22 13.5
l9 3q15 -70 98 -70h271q156 0 227.5 -130t71.5 -394q0 -99 -5.5 -169.5t-21 -135.5t-43 -106.5t-71 -72.5t-106 -45t-147.5 -14h-387l54 205h430q117 0 168 74.5t51 228.5z" />
    <glyph glyph-name="afii57685" unicode="&#x5e5;" horiz-adv-x="987" 
d="M360 166q0 -54 14.5 -193t14.5 -200q0 -51 -12 -88.5t-27 -55.5t-35 -28.5t-30.5 -12.5t-18.5 -2l-20 891v4q0 44 30.5 146t30.5 141q0 52 -41 57q-113 23 -155.5 53t-42.5 97q0 64 18 108t36 56l17 12q8 -38 43 -61t70 -27q37 -5 62.5 -12.5t54 -22.5t43 -42.5
t14.5 -67.5q0 -36 -51 -169.5t-51 -201.5l4 -180h16q125 250 385 462q-158 24 -158 146q0 46 7.5 81t18 52t21 28t18.5 13l7 2q5 -45 38.5 -65.5t78.5 -22.5q77 -5 119.5 -34t42.5 -107q0 -23 -7.5 -69.5t-19.5 -61.5q-53 26 -102 26q-96 -75 -197 -182
q-113 -122 -174.5 -245t-61.5 -224z" />
    <glyph glyph-name="afii57686" unicode="&#x5e6;" horiz-adv-x="983" 
d="M705 387l145 -100q45 -33 45 -88q0 -61 -43 -126t-78 -73h-700l63 205h545q0 18 -31 45l-299 209q-61 47 -61 125l6 147q0 121 -82 121q-77 0 -123.5 38.5t-46.5 102.5q0 40 9 70.5t21.5 45t25 23.5t21.5 11l9 2q12 -72 100 -78q81 -5 110.5 -29t29.5 -108
q0 -24 -8.5 -99t-8.5 -98q0 -94 56 -141l122 -86q71 192 181 340q-63 14 -103.5 54.5t-40.5 92.5q0 42 9 73t21.5 45.5t25 23t21.5 9.5l9 1q8 -71 117 -78q33 -3 53 -7.5t41.5 -16t32 -36t10.5 -61.5q0 -27 -6 -69t-18 -60q-47 21 -105 21q-51 -49 -92 -143t-41 -160
q0 -93 58 -148z" />
    <glyph glyph-name="afii57687" unicode="&#x5e7;" horiz-adv-x="1017" 
d="M135 -451l-20 9v956q0 82 78 150h18v-1041q0 -28 -76 -74zM494 78q0 -5 1 -30.5t1 -41.5q0 -67 -70 -67q-59 0 -59 77q0 157 288 353q16 10 40 29.5t58.5 54.5t57.5 83.5t23 98.5q0 34 -1.5 57t-11 55t-26.5 51.5t-50 33.5t-79 14h-416q-71 0 -116.5 44.5t-45.5 108.5
q0 38 11 66t26 41t30.5 21t26.5 9l11 1q15 -70 100 -70h381q51 0 91 -13.5t66 -32.5t44.5 -52t27.5 -60.5t14 -70t6 -68t1 -65.5q0 -55 -6 -100t-14 -77.5t-27 -62.5t-33 -48t-44.5 -41.5t-49 -35.5l-58.5 -37q-108 -64 -153 -109t-45 -116z" />
    <glyph glyph-name="afii57688" unicode="&#x5e8;" horiz-adv-x="1001" 
d="M780 -25l19 504q0 208 -48.5 287.5t-181.5 79.5h-358q-71 0 -114.5 43.5t-43.5 107.5q0 36 10.5 64t25.5 42.5t29.5 23.5t25.5 11l10 3q19 -74 100 -74h258q77 0 132 -6.5t99 -22.5t71 -42t45 -67.5t25 -95t7 -128.5v-637q0 -24 -11.5 -42.5t-27.5 -27.5t-32.5 -15
t-27.5 -7z" />
    <glyph glyph-name="afii57689" unicode="&#x5e9;" horiz-adv-x="1253" 
d="M1188 926q0 -62 -32 -138t-79 -157.5l-96 -172t-88.5 -212t-50.5 -246.5h-600q-7 35 -10 93t-9 83l-30 111l-28 103t-16.5 82.5t-7.5 92.5q0 121 52 275q-125 37 -125 137q0 42 7.5 75t19 49.5t22.5 27t19 13.5l7 3q11 -37 33 -52.5t86 -27.5q100 -21 100 -156
q0 -41 -10 -71q-30 0 -63.5 -2t-48.5 -2q-33 -128 -33 -236q0 -146 125 -393h41q128 238 239 639q-125 46 -125 145q0 41 8 72t19.5 46t23 24.5t19.5 11.5l8 2q4 -19 10.5 -32.5t19 -21t17.5 -10t23.5 -6.5t19.5 -4q60 -14 81 -28q50 -34 50 -117q0 -20 -8 -55.5t-16 -53.5
q-40 25 -96 25q-82 -366 -217 -637h327q68 207 240 448q53 74 53 129q0 11 -2.5 20t-5.5 15.5t-9 12.5t-10 9t-11.5 6.5t-11 4.5t-10.5 3.5t-8 2.5q-100 35 -100 119q0 46 8.5 80.5t21 50.5t25 26t20.5 12l9 1q2 -14 7 -24.5t10 -17t15 -12.5t15.5 -8l18 -6.5t16.5 -5.5
q1 0 10.5 -3l14 -4.5t15 -6t16.5 -8t16 -10.5t15.5 -14t13 -17.5t11.5 -22.5t6.5 -27t2.5 -32z" />
    <glyph glyph-name="afii57690" unicode="&#x5ea;" horiz-adv-x="1054" 
d="M850 -25l18 504q0 208 -48 287.5t-181 79.5h-256q-111 -201 -111 -322q0 -95 29 -233t29 -172l-13 -119h-276l35 205h125q-2 30 -6 84t-7.5 95.5t-3.5 49.5q0 121 37 214t105 198h-45q-71 0 -114.5 43.5t-43.5 107.5q0 36 10.5 64t25 42.5t29 23.5t24.5 11l11 3
q19 -74 101 -74h258q77 0 132 -6.5t99 -22.5t71 -42t45 -67.5t25 -95t7 -128.5v-637q0 -24 -11.5 -42.5t-27.5 -27.5t-32.5 -15t-27.5 -7z" />
    <glyph glyph-name="afii57716" unicode="&#x5f0;" horiz-adv-x="1140" 
d="M913 -12l21 700q0 83 -36 114t-124 44q-76 12 -124 58t-48 108q0 32 11 57.5t26 39t30.5 22.5t26.5 11l11 3q4 -21 17 -36.5t35.5 -24.5t36.5 -13t38 -8q42 -7 62.5 -12t47 -19.5t38 -37.5t20 -63.5t8.5 -99.5l12 -727q0 -29 -11 -51.5t-27 -34.5t-32.5 -19t-27.5 -9z
M358 -12l21 700q0 83 -36 114t-124 44q-76 12 -124 58t-48 108q0 32 11 57.5t26.5 39t30.5 22.5t26 11l11 3q4 -21 17 -36.5t35.5 -24.5t36.5 -13t38 -8q42 -7 62.5 -12t47 -19.5t38 -37.5t20 -63.5t8.5 -99.5l12 -727q0 -46 -27.5 -75t-54.5 -35z" />
    <glyph glyph-name="afii57717" unicode="&#x5f1;" horiz-adv-x="1116" 
d="M311 498l-12 14q92 68 92 227q0 50 -43 79t-119 32q-83 3 -128.5 41.5t-45.5 105.5q0 38 9 67.5t21.5 44t25 23.5t21.5 11l9 2q4 -28 17 -45t37.5 -23.5t42 -8t49.5 -1.5q74 0 111 -18t53 -65t16 -142q0 -39 -6 -81t-21 -94.5t-48.5 -98t-80.5 -70.5zM913 -12l21 700
q0 83 -36 114t-124 44q-76 12 -124 58t-48 108q0 32 11 57.5t26 39t30.5 22.5t26.5 11l11 3q4 -21 17 -36.5t35.5 -24.5t36.5 -13t38 -8q42 -7 62.5 -12t47 -19.5t38 -37.5t20 -63.5t8.5 -99.5l12 -727q0 -29 -11 -51.5t-27 -34.5t-32.5 -19t-27.5 -9z" />
    <glyph glyph-name="afii57718" unicode="&#x5f2;" horiz-adv-x="1091" 
d="M856 498l-12 14q92 68 92 227q0 50 -43 79t-119 32q-83 3 -128.5 41.5t-45.5 105.5q0 38 9 67.5t21.5 44t25 23.5t21.5 11l9 2q4 -28 17 -45t37.5 -23.5t41.5 -8t49 -1.5q109 0 145 -43.5t36 -181.5q0 -39 -6 -81t-21 -94.5t-48.5 -98t-80.5 -70.5zM311 498l-12 14
q92 68 92 227q0 50 -43 79t-119 32q-83 3 -128.5 41.5t-45.5 105.5q0 38 9 67.5t21.5 44t25 23.5t21.5 11l9 2q4 -28 17 -45t37.5 -23.5t42 -8t49.5 -1.5q74 0 111 -18t53 -65t16 -142q0 -39 -6 -81t-21 -94.5t-48.5 -98t-80.5 -70.5z" />
    <glyph glyph-name="uni05F3" unicode="&#x5f3;" horiz-adv-x="448" 
d="M289 1151q28 0 58 -15.5t30 -50.5q0 -56 -113 -227q-69 -106 -92 -137t-35 -31q-11 0 -23 10t-12 33q0 11 2 25.5t7 38.5l9.5 45l13.5 61.5l16 71.5q17 85 54 130.5t85 45.5z" />
    <glyph glyph-name="uni05F4" unicode="&#x5f4;" horiz-adv-x="788" 
d="M633 1151q28 0 58 -15.5t30 -50.5q0 -56 -113 -227q-69 -106 -92 -137t-35 -31q-11 0 -23 10t-12 33q0 11 2 25.5t7 38.5l9.5 45l13.5 61.5l16 71.5q17 85 54 130.5t85 45.5zM289 1151q28 0 58 -15.5t30 -50.5q0 -56 -113 -227q-69 -106 -92 -137t-35 -31q-11 0 -23 10
t-12 33q0 11 2 25.5t7 38.5l9.5 45l13.5 61.5l16 71.5q17 85 54 130.5t85 45.5z" />
    <glyph glyph-name="uniFB35" unicode="&#xfb35;" horiz-adv-x="583" 
d="M367 -12l20 700q0 83 -36 114t-124 44q-76 12 -124 58t-48 108q0 32 11 57.5t26.5 39t30.5 22.5t26 11l11 3q4 -21 17 -36.5t35.5 -24.5t36.5 -13t38 -8q42 -7 62.5 -12t47 -19.5t38 -37.5t20 -63.5t8.5 -99.5l12 -727q0 -29 -11 -51.5t-27 -34.5t-32 -19t-27 -9z
M118 518q0 29 21.5 49.5t50.5 20.5t50.5 -20.5t21.5 -49.5t-21.5 -50.5t-50.5 -21.5t-50.5 21.5t-21.5 50.5z" />
    </font>
</defs>
</svg>
